#TITLE:Ecco 2;
#SUBTITLE:- RushJet1 - Eccos NES Rave;
#ARTIST:Unknown artist;
#TITLETRANSLIT:;
#SUBTITLETRANSLIT:;
#ARTISTTRANSLIT:;
#CREDIT:;
#BANNER:;
#BACKGROUND:;
#LYRICSPATH:;
#CDTITLE:;
#MUSIC:Ecco 2 - RushJet1 - Eccos NES Rave.mp3;
#OFFSET:0.000;
#SAMPLESTART:100.000;
#SAMPLELENGTH:12.000;
#SELECTABLE:YES;
#BPMS:0.000=150.240;
#STOPS:;
#BGCHANGES:;
// cache tags:
#FIRSTBEAT:0.000;
#LASTBEAT:196.000;
#SONGFILENAME:Songs/My Creations/Ecco 2 - RushJet1 - Eccos NES Rave/Ecco 2 - RushJet1 - Eccos NES Rave.sm;
#HASMUSIC:1;
#HASBANNER:0;
#MUSICLENGTH:193.228;
// end cache tags

//---------------dance-single - ----------------
#NOTES:
     dance-single:
     :
     Easy:
     1:
     0.052,0.050,0.088,0.000,0.000,53.000,17.000,0.000,0.000,0.000:
1001
0100
1000
0100
,
1001
0100
1000
0100
,
0110
0001
0010
0001
,
0110
0001
0010
0001
,
1001
0100
1000
0100
,
1001
0100
1000
0100
,
0110
0001
0010
0001
,
0110
0001
0010
0001
,
1010
0000
0101
0000
,
1010
0000
0101
0000
,
1010
0000
0101
0000
,
1010
0000
0101
0000
,
0001
0010
0000
0010
,
1000
0100
0000
0100
,
0001
0010
0000
0010
,
1000
0100
0000
0100
,
1001
0000
0000
0000
;

//---------------dance-single - ----------------
#NOTES:
     dance-single:
     :
     Hard:
     1:
     0.000,0.000,0.000,0.000,0.000,0.000,0.000,0.000,0.000,0.000:  // measure 1
0000
0000
0000
0000
;
